1921 2018 Hindi 720p HDRip x264 AAC

Bollywood Old & Latest Camrip HDCam DVDRip DVDScr HDRip VCDRip Blueray BRRip Unrated Uncutted HD High Compressed H264 H265 HVEC Small Size Movies
User avatar
ρυиιѕнєя

Admin
Reactions:
Posts: 658
Joined: Mon Nov 20, 2017 6:42 am
    Windows 10 Spartan
Mood:
Gender:

1921 2018 Hindi 720p HDRip x264 AAC

Post: #Post ρυиιѕнєя
Wed Feb 28, 2018 5:20 pm

1921 2018 Hindi 720p HDRip x264 AAC
Image

Code: Select all


General 
Format                      : Matroska 
Format version              : Version 4 / Version 2 
File size                   : 909 MiB 
Duration                    : 2 h 21 min 
Overall bit rate            : 897 kb/s 

Video 
ID                          : 1 
Format                      : AVC 
Format/Info                 : Advanced Video Codec 
Format profile              : High@L4.1 
Format settings             : CABAC / 6 Ref Frames 
Format settings, CABAC      : Yes 
Format settings, ReFrames   : 6 frames 
Codec ID                    : V_MPEG4/ISO/AVC 
Duration                    : 2 h 21 min 
Bit rate                    : 800 kb/s 
Width                       : 1 280 pixels 
Height                      : 544 pixels 
Display aspect ratio        : 2.35:1 
Frame rate mode             : Constant 
Frame rate                  : 25.000 FPS 
Color space                 : YUV 
Chroma subsampling          : 4:2:0 
Bit depth                   : 8 bits 
Scan type                   : Progressive 
Bits/(Pixel*Frame)          : 0.046 
Stream size                 : 809 MiB (89%) 
Writing library             : x264 core 148 r2708 86b7198 
Default                     : Yes 
Forced                      : No 

Audio 
ID                          : 2 
Format                      : AAC 
Format/Info                 : Advanced Audio Codec 
Format profile              : LC 
Codec ID                    : A_AAC-2 
Duration                    : 2 h 21 min 
Bit rate                    : 96.0 kb/s 
Channel(s)                  : 2 channels 
Channel positions           : Front: L R 
Sampling rate               : 44.1 kHz 
Frame rate                  : 43.066 FPS (1024 SPF) 
Compression mode            : Lossy 
Stream size                 : 97.2 MiB (11%) 
Language                    : English 
Default                     : Yes 
Forced                      : No 

U Need To Reply To see Download Links
HIDE: ON
Hidebb Message Hidden Description
Image

sspp80

Registered users
Reactions:
Posts: 36
Joined: Tue Jan 09, 2018 4:59 pm
    Windows 7 Chrome
Mood:
Gender:

Post: #Post sspp80
Sun Mar 04, 2018 7:26 am

Thanks

ejaz1987e

Registered users
Reactions:
Posts: 12
Joined: Sat Mar 10, 2018 10:39 am
    Windows 7 Firefox
Mood:
Gender:

Post: #Post ejaz1987e
Sun Mar 11, 2018 5:47 am

link plz

Xahid

Registered users
Reactions:
Posts: 6
Joined: Sun Dec 31, 2017 11:34 am
    Windows 7 Firefox
Mood:
Gender:

Post: #Post Xahid
Sun Mar 11, 2018 6:09 am

Let me see

Last 255 Members Who Visited This Topic

9920 (1), Anandrathod196 (1), Leaker (1), rajasaini (1), weareone (1), kalpesh9986 (1), romet (1), User avatar ♥Mr.PerFect♥ (1), Xahid (2), ejaz1987e (2), amar14 (1), mainakeyla (1), sspp80 (1), User avatar ρυиιѕнєя (4), Yasin8189 (1)

Who is online

Users browsing this forum: CommonCrawl [Bot] and 0 guests