Shaadi Mein Zaroor Aana 2017 720p HDTV AAC

Bollywood Old & Latest Camrip HDCam DVDRip DVDScr HDRip VCDRip Blueray BRRip Unrated Uncutted HD High Compressed H264 H265 HVEC Small Size Movies
User avatar
ρυиιѕнєя
Admin
Admin
Reactions:
Posts: 658
Joined: Mon Nov 20, 2017 6:42 am
    Windows 10 Spartan
Mood:
Gender:

Shaadi Mein Zaroor Aana 2017 720p HDTV AAC

Post: #Post ρυиιѕнєя
Wed Feb 28, 2018 5:25 pm

Shaadi Mein Zaroor Aana 2017 720p HDTV AAC
Image

Code: Select all


General 
Format                      : Matroska 
Format version              : Version 4 / Version 2 
File size                   : 1.08 GiB 
Duration                    : 2 h 8 min 
Overall bit rate            : 1 211 kb/s 

Video 
ID                          : 1 
Format                      : AVC 
Format/Info                 : Advanced Video Codec 
Format profile              : High@L4.1 
Format settings             : CABAC / 4 Ref Frames 
Format settings, CABAC      : Yes 
Format settings, ReFrames   : 4 frames 
Codec ID                    : V_MPEG4/ISO/AVC 
Duration                    : 2 h 8 min 
Bit rate                    : 1 100 kb/s 
Width                       : 1 280 pixels 
Height                      : 468 pixels 
Display aspect ratio        : 2.735 
Frame rate mode             : Constant 
Frame rate                  : 25.000 FPS 
Color space                 : YUV 
Chroma subsampling          : 4:2:0 
Bit depth                   : 8 bits 
Scan type                   : Progressive 
Bits/(Pixel*Frame)          : 0.073 
Stream size                 : 1 020 MiB (92%) 
Writing library             : x264 core 148 r2708 86b7198 
Default                     : Yes 
Forced                      : No 

Audio 
ID                          : 2 
Format                      : AAC 
Format/Info                 : Advanced Audio Codec 
Format profile              : LC 
Codec ID                    : A_AAC-2 
Duration                    : 2 h 8 min 
Bit rate                    : 96.0 kb/s 
Channel(s)                  : 2 channels 
Channel positions           : Front: L R 
Sampling rate               : 44.1 kHz 
Frame rate                  : 43.066 FPS (1024 SPF) 
Compression mode            : Lossy 
Stream size                 : 88.0 MiB (8%) 
Language                    : Hindi 
Default                     : Yes 
Forced                      : No 

U Need To Reply To see Download Links
HIDE: ON
Hidebb Message Hidden Description
Image

thekumarrishu
Registered users
Registered users
Reactions:
Posts: 44
Joined: Thu Feb 01, 2018 11:02 am
    Windows 10 Chrome
Mood:
Gender:

Post: #Post thekumarrishu
Wed Apr 11, 2018 9:28 pm

quality

ashishahuja
Registered users
Registered users
Reactions:
Posts: 7
Joined: Fri Mar 23, 2018 1:21 am
    Linux Chrome

Post: #Post ashishahuja
Thu Apr 12, 2018 8:54 pm

Link..

Skillshot099
Registered users
Registered users
Reactions:
Posts: 26
Joined: Mon Apr 02, 2018 4:01 am
    Windows 10 Chrome

Post: #Post Skillshot099
Sun May 20, 2018 10:26 am

thanks

vijaysingh20188
Registered users
Registered users
Reactions:
Posts: 40
Joined: Sun Apr 22, 2018 6:36 am
    Windows 10 Chrome

Post: #Post vijaysingh20188
Sun Sep 09, 2018 12:28 pm

please provide me download link

joigr8lyf
Registered users
Registered users
Reactions:
Posts: 5
Joined: Sun Apr 08, 2018 3:01 am
    Linux Chrome
Gender:

Post: #Post joigr8lyf
Sun Sep 23, 2018 5:43 am

Download link

Last 255 Members Who Visited This Topic

mudoo786 (2), joigr8lyf (2), stark (2), alimbjbr (1), vijaysingh20188 (2), Skillshot099 (2), Sourav5214 (2), thekumarrishu (3), saadmohammed2001 (1), samb54 (1), empty00 (1), ashishahuja (3), princejuly1791 (1), sweetymkd (2), Xahid (1), User avatar ρυиιѕнєя (3), abhiseema (1), Rakesh786 (1), Tru (1), wisher15 (1), Yasin8189 (1)

Who is online

Users browsing this forum: CommonCrawl [Bot] and 0 guests